Download The Walking Dead S10E17 WEB-DL XviD B4ND1T69 torrent - GloDLS
Login
Username:
Password:
Remember Me:
[Signup]
[Recover Account]
Friends
Angie Torrents
Friendly Site

Pirateiro
Friendly site

Free Courses Online
Friendly site

ETTV
Friendly site

ProStyleX
Friendly site

KaranPC
Friendly site

P2PDL.com
Friendly site

OneHack
Friendly site

IGGGames
Friendly site

Torrent Details For "The Walking Dead S10E17 WEB-DL XviD B4ND1T69"

The Walking Dead S10E17 WEB-DL XviD B4ND1T69

To download this torrent, you need a BitTorrent client: Vuze or BTGuard
Download this torrent
Download using Magnet Link

Health:
Seeds: 196
Leechers: 35
Completed: 841 
Last Checked: 23-02-2021 11:04:00

Uploader Reputation points : 542
External: Torrent






Write a Review for the Uploader:   0   Say Thanks with one good review:
Share on Facebook
TV Info

The Walking Dead: World Beyond

A heroic group of teens — the first generation to be raised in the zombie apocalypse — receive a message that inspires them to leave the safety of home to embark on a cross-country journey to save their father, and possibly the world.



Details
Name:The Walking Dead S10E17 WEB-DL XviD B4ND1T69
Description:
The.Walking.Dead.S10E17.WEB-DL.XviD.B4ND1T69



Creators: Frank Darabont, Angela Kang
Stars: Andrew Lincoln, Norman Reedus, Melissa McBride

Plot/Story:
Home Sweet Home
Maggie has returned with a story she is not ready to share, even when her past catches up to her. Negan's safety is at stake again. Daryl and Maggie fight an unseen and unknown threat.

General
Complete name               : The.Walking.Dead.S10E17.WEB-DL.XviD.B4ND1T69.avi
Format                      : AVI
Format/Info                 : Audio Video Interleave
File size                   : 602 MiB
Duration                    : 48 min 20 s
Overall bit rate            : 1 741 kb/s
Subtitles                   : Yes...Included(HI)

Video
ID                          : 0
Format                      : MPEG-4 Visual
Format profile              : Advanced [email protected]
Format settings, BVOP       : 2
Format settings, QPel       : No
Format settings, GMC        : No warppoints
Format settings, Matrix     : Default (H.263)
Codec ID                    : XVID
Codec ID/Hint               : XviD
Duration                    : 48 min 20 s
Bit rate                    : 1 600 kb/s
Width                       : 640 pixels
Height                      : 360 pixels
Display aspect ratio        : 16:9
Frame rate                  : 24.000 FPS
Color space                 : YUV
Chroma subsampling          : 4:2:0
Bit depth                   : 8 bits
Scan type                   : Progressive
Compression mode            : Lossy
Bits/(Pixel*Frame)          : 0.289
Stream size                 : 553 MiB (92%)
Writing library             : XviD 64

Audio
ID                          : 1
Format                      : MPEG Audio
Format version              : Version 1
Format profile              : Layer 3
Codec ID                    : 55
Codec ID/Hint               : MP3
Duration                    : 48 min 20 s
Bit rate mode               : Constant
Bit rate                    : 128 kb/s
Channel(s)                  : 2 channels
Sampling rate               : 48.0 kHz
Compression mode            : Lossy
Stream size                 : 44.3 MiB (7%)
Alignment                   : Aligned on interleaves
Interleave, duration        : 24  ms (0.58 video frame)

Screenshots:







Please Seed For As Long As Possible
Or At Least 1:1 Ratio...Thanks
Enjoy Peeps
YouTube Video:   
Category:TV
Language:English  English
Total Size:602.00 MB
Info Hash:DACDD12F1B3034F687121FD9455B5C0DCC324629
Added By:B4ND1T69 Verified UploaderMovie Pirate
Date Added:2021-02-23 03:02:54
Torrent Status:Torrent Verified


Ratings:Not Yet Rated (Log in to rate it)


Tracker:
udp://tracker.opentrackr.org:1337/announce

This Torrent also has backup trackers
URLSeedersLeechersCompleted
udp://tracker.opentrackr.org:1337/announce4910169
udp://exodus.desync.com:6969/announce275117
udp://open.demonii.si:1337/announce000
udp://tracker.pirateparty.gr:6969/announce000
udp://tracker.leechers-paradise.org:6969/announce000
udp://9.rarbg.to:2770/announce293210
udp://open.stealth.si:80/announce406128
udp://tracker.uw0.xyz:6969/announce245107
udp://tracker.tiny-vps.com:6969/announce276110


File List: 





Comments
No comments still posted