Download RED (2021) 720p Telugu TRUE HDRip [Hindi + Urdu + English Subtitles] (DD 5 1) x264 AC3 By Full4Movies torrent - GloDLS
Torrent Details For "RED (2021) 720p Telugu TRUE HDRip [Hindi + Urdu + English Subtitles] (DD 5 1) x264 A..."

RED (2021) 720p Telugu TRUE HDRip [Hindi + Urdu + English Subtitles] (DD 5 1) x264 A...

To download this torrent, you need a BitTorrent client: Vuze or BTGuard
Download this torrent
Download using Magnet Link

Health:
Seeds: 179
Leechers: 353
Completed: 256 
Last Checked: 23-02-2021 16:24:56

Uploader Reputation points : 5099
External: Torrent






Write a Review for the Uploader:   5   Say Thanks with one good review:
Share on Facebook


Details
Name:RED (2021) 720p Telugu TRUE HDRip [Hindi + Urdu + English Subtitles] (DD 5 1) x264 A...
Description:


Visit Us = https://www.full4movies.biz/



General
Complete name                  : RED (2021) 720p Telugu TRUE HDRip [Hindi + Urdu + English Subtitles] (DD 5.1) x264 AC3 By Full4Movies.mkv
Format                         : Matroska
Format version                 : Version 4
File size                      : 989 MiB
Duration                       : 2 h 23 min
Overall bit rate mode          : Variable
Overall bit rate               : 965 kb/s
Encoded date                   : UTC 2021-02-23 07:12:38
Writing application            : mkvmerge v6.8.0 ('Theme for Great Cities') 64bit built on Mar  2 2014 21:34:26
Writing library                : libebml v1.3.0 + libmatroska v1.4.1

Video
ID                             : 1
Format                         : AVC
Format/Info                    : Advanced Video Codec
Format profile                 : [email protected]
Format settings                : CABAC / 4 Ref Frames
Format settings, CABAC         : Yes
Format settings, Reference fra : 4 frames
Codec ID                       : V_MPEG4/ISO/AVC
Duration                       : 2 h 23 min
Bit rate mode                  : Variable
Bit rate                       : 754 kb/s
Maximum bit rate               : 14.0 Mb/s
Width                          : 1 280 pixels
Height                         : 720 pixels
Display aspect ratio           : 16:9
Frame rate mode                : Constant
Frame rate                     : 24.000 FPS
Color space                    : YUV
Chroma subsampling             : 4:2:0
Bit depth                      : 8 bits
Scan type                      : Progressive
Bits/(Pixel*Frame)             : 0.034
Stream size                    : 773 MiB (78%)
Writing library                : x264 core 148 r2722 1b0121b
Language                       : Telugu
Default                        : Yes
Forced                         : No

Audio
ID                             : 2
Format                         : E-AC-3
Format/Info                    : Enhanced AC-3
Commercial name                : Dolby Digital Plus
Codec ID                       : A_EAC3
Duration                       : 2 h 23 min
Bit rate mode                  : Constant
Bit rate                       : 192 kb/s
Channel(s)                     : 6 channels
Channel layout                 : L R C LFE Ls Rs
Sampling rate                  : 48.0 kHz
Frame rate                     : 31.250 FPS (1536 SPF)
Compression mode               : Lossy
Stream size                    : 197 MiB (20%)
Language                       : Telugu
Service kind                   : Complete Main
Default                        : Yes
Forced                         : No

Text #1
ID                             : 3
Format                         : UTF-8
Codec ID                       : S_TEXT/UTF8
Codec ID/Info                  : UTF-8 Plain Text
Language                       : Hindi
Default                        : Yes
Forced                         : No

Text #2
ID                             : 4
Format                         : UTF-8
Codec ID                       : S_TEXT/UTF8
Codec ID/Info                  : UTF-8 Plain Text
Language                       : Urdu
Default                        : No
Forced                         : No

Text #3
ID                             : 5
Format                         : UTF-8
Codec ID                       : S_TEXT/UTF8
Codec ID/Info                  : UTF-8 Plain Text
Language                       : English
Default                        : No
Forced                         : No

Screen Shoots









YouTube Video:
Category:Movies
Language:Telugu
Total Size:989.17 MB
Info Hash:C8AD02C25525FC3352221F5AEB9642D8B7C44BBF
Added By:india4movie Verified Uploader
Date Added:2021-02-23 16:39:04
Torrent Status:Torrent Verified


Ratings:Not Yet Rated (Log in to rate it)


Tracker:
udp://tracker.opentrackr.org:1337/announce

This Torrent also has backup trackers
URLSeedersLeechersCompleted
udp://tracker.opentrackr.org:1337/announce347184
udp://tracker.cyberia.is:6969/announce223938
udp://9.rarbg.me:2980/announce000
udp://open.stealth.si:80/announce133217
udp://exodus.desync.com:6969/announce142519
udp://tracker.moeking.me:6969/announce132816
udp://explodie.org:6969/announce3160
udp://tracker.openbittorrent.com:80/announce112
udp://inferno.demonoid.is:3391/announce131912
udp://tracker.torrent.eu.org:451/announce162921
udp://ipv4.tracker.harry.lu:80/announce3150
udp://tracker.uw0.xyz:6969/announce131810
udp://tracker.coppersurfer.tk:6969/announce000
udp://exodus.desync.com:6969/announce142519
udp://tracker.tiny-vps.com:6969/announce203518


File List: 





Comments
No comments still posted