Download RED (2021) 480p Telugu TRUE HDRip [Hindi + Urdu + English Subtitles] x264 Mp3 By Full4Movies mkv torrent - GloDLS
Login
Username:
Password:
Remember Me:
[Signup]
[Recover Account]
Friends
Angie Torrents
Friendly Site

Pirateiro
Friendly site

Free Courses Online
Friendly site

ETTV
Friendly site

ProStyleX
Friendly site

KaranPC
Friendly site

P2PDL.com
Friendly site

OneHack
Friendly site

IGGGames
Friendly site

Torrent Details For "RED (2021) 480p Telugu TRUE HDRip [Hindi + Urdu + English Subtitles] x264 Mp3 By Ful..."

RED (2021) 480p Telugu TRUE HDRip [Hindi + Urdu + English Subtitles] x264 Mp3 By Ful...

To download this torrent, you need a BitTorrent client: Vuze or BTGuard
Download this torrent
Download using Magnet Link

Health:
Seeds: 54
Leechers: 44
Completed: 127 
Last Checked: 23-02-2021 16:24:45

Uploader Reputation points : 5083
External: Torrent






Write a Review for the Uploader:   5   Say Thanks with one good review:
Share on Facebook


Details
Name:RED (2021) 480p Telugu TRUE HDRip [Hindi + Urdu + English Subtitles] x264 Mp3 By Ful...
Description:


Visit Us = https://www.full4movies.biz/



General
Complete name                  : RED (2021) 480p Telugu TRUE HDRip [Hindi + Urdu + English Subtitles] x264 Mp3 By Full4Movies.mkv
Format                         : Matroska
Format version                 : Version 4
File size                      : 410 MiB
Duration                       : 2 h 23 min
Overall bit rate               : 401 kb/s
Encoded date                   : UTC 2021-02-23 07:11:38
Writing application            : mkvmerge v6.8.0
Writing library                : libebml v1.3.0 + libmatroska v1.4.1

Video
ID                             : 1
Format                         : AVC
Format/Info                    : Advanced Video Codec
Format profile                 : [email protected]
Format settings                : CABAC / 4 Ref Frames
Format settings, CABAC         : Yes
Format settings, Reference fra : 4 frames
Codec ID                       : V_MPEG4/ISO/AVC
Duration                       : 2 h 23 min
Bit rate                       : 336 kb/s
Width                          : 640 pixels
Height                         : 272 pixels
Display aspect ratio           : 2.35:1
Frame rate mode                : Constant
Frame rate                     : 24.000 FPS
Color space                    : YUV
Chroma subsampling             : 4:2:0
Bit depth                      : 8 bits
Scan type                      : Progressive
Bits/(Pixel*Frame)             : 0.080
Stream size                    : 337 MiB (82%)
Writing library                : x264 core 157 r2935 545de2f
Language                       : Telugu
Default                        : Yes
Forced                         : No

Audio
ID                             : 2
Format                         : MPEG Audio
Format version                 : Version 1
Format profile                 : Layer 3
Format settings                : Joint stereo / MS Stereo
Codec ID                       : A_MPEG/L3
Codec ID/Hint                  : MP3
Duration                       : 2 h 23 min
Bit rate mode                  : Constant
Bit rate                       : 64.0 kb/s
Channel(s)                     : 2 channels
Sampling rate                  : 48.0 kHz
Compression mode               : Lossy
Stream size                    : 65.6 MiB (16%)
Writing library                : LAME3.98.2
Language                       : Telugu
Default                        : Yes
Forced                         : No

Text #1
ID                             : 3
Format                         : UTF-8
Codec ID                       : S_TEXT/UTF8
Codec ID/Info                  : UTF-8 Plain Text
Language                       : Hindi
Default                        : Yes
Forced                         : No

Text #2
ID                             : 4
Format                         : UTF-8
Codec ID                       : S_TEXT/UTF8
Codec ID/Info                  : UTF-8 Plain Text
Language                       : Urdu
Default                        : No
Forced                         : No

Text #3
ID                             : 5
Format                         : UTF-8
Codec ID                       : S_TEXT/UTF8
Codec ID/Info                  : UTF-8 Plain Text
Language                       : English
Default                        : No
Forced                         : No

Screen Shoots









YouTube Video:
Category:Movies
Language:Telugu
Total Size:410.36 MB
Info Hash:E4F2AF79847D45D8330E36122C94F111A4606A67
Added By:india4movie Verified Uploader
Date Added:2021-02-23 16:35:32
Torrent Status:Torrent Verified


Ratings:Not Yet Rated (Log in to rate it)


Tracker:
udp://tracker.opentrackr.org:1337/announce

This Torrent also has backup trackers
URLSeedersLeechersCompleted
udp://tracker.opentrackr.org:1337/announce000
udp://tracker.cyberia.is:6969/announce8410
udp://9.rarbg.me:2980/announce9729
udp://open.stealth.si:80/announce539
udp://exodus.desync.com:6969/announce2411
udp://tracker.moeking.me:6969/announce5311
udp://explodie.org:6969/announce220
udp://tracker.openbittorrent.com:80/announce212
udp://inferno.demonoid.is:3391/announce439
udp://tracker.torrent.eu.org:451/announce5310
udp://ipv4.tracker.harry.lu:80/announce140
udp://tracker.uw0.xyz:6969/announce5313
udp://tracker.coppersurfer.tk:6969/announce000
udp://exodus.desync.com:6969/announce2411
udp://tracker.tiny-vps.com:6969/announce4312


File List: 





Comments
No comments still posted