Download Celeste - Not Your Muse (Deluxe) (2021) [24-44 1] torrent - GloDLS
Login
Username:
Password:
Remember Me:
[Signup]
[Recover Account]
Friends
Angie Torrents
Friendly Site

Pirateiro
Friendly site

Free Courses Online
Friendly site

ETTV
Friendly site

ProStyleX
Friendly site

KaranPC
Friendly site

P2PDL.com
Friendly site

OneHack
Friendly site

IGGGames
Friendly site

Torrent Details For "Celeste - Not Your Muse (Deluxe) (2021) [24-44 1]"

Celeste - Not Your Muse (Deluxe) (2021) [24-44 1]

To download this torrent, you need a BitTorrent client: Vuze or BTGuard
Download this torrent
Download using Magnet Link

Health:
Seeds: 0
Leechers: 0
Completed:
Last Checked: 23-02-2021 15:29:00

Uploader Reputation points : 1294
External: Torrent






Write a Review for the Uploader:   5   Say Thanks with one good review:
Share on Facebook


Details
Name:Celeste - Not Your Muse (Deluxe) (2021) [24-44 1]
Description:
DR         Peak         RMS     Duration Track
--------------------------------------------------------------------------------
DR6       -0.20 dB   -10.44 dB      3:44 01-Ideal Woman
DR8       -0.32 dB   -11.76 dB      3:21 02-Strange (Edit)
DR6       -0.20 dB    -6.82 dB      3:39 03-Tonight Tonight
DR5       -0.20 dB    -8.05 dB      3:32 04-Stop This Flame
DR4       -0.21 dB    -6.26 dB      3:56 05-Tell Me Something I Don't Know
DR5       -0.20 dB    -9.19 dB      4:27 06-Not Your Muse
DR5       -0.32 dB    -8.15 dB      3:58 07-Beloved
DR5       -0.32 dB    -6.98 dB      4:16 08-Love Is Back
DR6       -0.32 dB   -10.44 dB      3:58 09-A Kiss
DR5       -0.32 dB    -7.96 dB      3:45 10-The Promise
DR5       -0.21 dB    -7.34 dB      3:02 11-A Little Love (From The John Lewis & Waitrose Christmas Advert 2020)
DR7       -0.32 dB   -10.09 dB      3:26 12-Some Goodbyes Come With Hellos
DR7       -0.30 dB    -8.84 dB      3:18 13-Father's Son
DR9       -0.32 dB   -11.37 dB      4:05 14-Lately
DR8       -0.21 dB   -11.33 dB      4:17 15-Both Sides Of The Moon
DR8       -0.32 dB   -11.45 dB      4:16 16-Strange
DR8       -0.32 dB   -10.20 dB      4:07 18-In The Summer Of My Life
DR6       -1.10 dB    -9.66 dB      3:03 20-Hear My Voice
DR6       -0.32 dB    -9.97 dB      3:26 21-I'm Here
DR6       -0.32 dB    -9.00 dB      2:50 19-It's All Right (From "Soul"/Duet Version)
DR5       -0.32 dB    -7.23 dB      3:49 17-Unseen
--------------------------------------------------------------------------------

Number of tracks:  21
Official DR value: DR6
Samplerate:        44100 Hz
Channels:          2
Bits per sample:   24
Bitrate:           1615 kbps
Codec:             FLAC
YouTube Video:
Category:FLAC
Language:Aucune/N/D
Total Size:841.94 MB
Info Hash:C7528A847AF432CF11C39F9C882D62371CEAA8B1
Added By:was95was Verified UploaderMusic Lover
Date Added:2021-02-23 23:28:59
Torrent Status:Torrent Verified


Ratings:Not Yet Rated (Log in to rate it)


Tracker:
udp://tracker.piratepublic.com:1337/announce

This Torrent also has backup trackers
URLSeedersLeechersCompleted
udp://tracker.piratepublic.com:1337/announce000
udp://tracker.pirateparty.gr:6969/announce000
udp://tracker.coppersurfer.tk:6969/announce000
udp://tracker.leechers-paradise.org:6969/announce000
udp://9.rarbg.com:2710/announce000
http://p4p.arenabg.com:1337/announce000
http://explodie.org:6969/announce000
udp://tracker.opentrackr.org:1337/announce000
udp://exodus.desync.com:6969/announce000
udp://tracker.leechers-paradise.org:6969/announce000
udp://tracker.zer0day.to:1337/announce000
udp://open.demonii.si:1337/announce000
udp://exodus.desync.com:6969/announce000
udp://tracker.iamhansen.xyz:2000/announce000


File List: 





Comments
No comments still posted