Download American Gods S03E06 Conscience of the King WEB-DL XviD B4ND1T69 torrent - GloDLS
Torrent Details For "American Gods S03E06 Conscience of the King WEB-DL XviD B4ND1T69"

American Gods S03E06 Conscience of the King WEB-DL XviD B4ND1T69

To download this torrent, you need a BitTorrent client: Vuze or BTGuard
Download this torrent
Download using Magnet Link

Health:
Seeds: 171
Leechers: 46
Completed: 520 
Last Checked: 21-02-2021 21:13:31

Uploader Reputation points : 580
External: Torrent






Write a Review for the Uploader:   0   Say Thanks with one good review:
Share on Facebook
TV Info

American Gods

A recently released ex-convict named Shadow meets a mysterious man who calls himself "Wednesday" and who knows more than he first seems to about Shadow's life and past.



Details
Name:American Gods S03E06 Conscience of the King WEB-DL XviD B4ND1T69
Description:
American.Gods.S03E06.Conscience.of.the.King.WEB-DL.XviD.B4ND1T69



Creators: Bryan Fuller, Michael Green
Stars: Ricky Whittle, Emily Browning, Crispin Glover, Yetide Badaki

Plot/Story:
Conscience of the King
Despite his past following him to Lakeside, Shadow makes himself at home and builds relationships with the town's residents. Laura and Salim continue to hunt for Wednesday, who attempts one final gambit to win over Demeter.

General
Complete name               : American.Gods.S03E06.Conscience.of.the.King.WEB-DL.XviD.B4ND1T69.avi
Format                      : AVI
Format/Info                 : Audio Video Interleave
File size                   : 373 MiB
Duration                    : 50 min 34 s
Overall bit rate            : 1 032 kb/s
Subtitles                   : Yes...Included(HI)

Video
ID                          : 0
Format                      : MPEG-4 Visual
Format profile              : Advanced [email protected]
Format settings, BVOP       : 2
Format settings, QPel       : No
Format settings, GMC        : No warppoints
Format settings, Matrix     : Default (H.263)
Codec ID                    : XVID
Codec ID/Hint               : XviD
Duration                    : 50 min 34 s
Bit rate                    : 890 kb/s
Width                       : 640 pixels
Height                      : 360 pixels
Display aspect ratio        : 16:9
Frame rate                  : 23.976 (24000/1001) FPS
Color space                 : YUV
Chroma subsampling          : 4:2:0
Bit depth                   : 8 bits
Scan type                   : Progressive
Compression mode            : Lossy
Bits/(Pixel*Frame)          : 0.161
Stream size                 : 322 MiB (86%)
Writing library             : XviD 64

Audio
ID                          : 1
Format                      : MPEG Audio
Format version              : Version 1
Format profile              : Layer 3
Codec ID                    : 55
Codec ID/Hint               : MP3
Duration                    : 50 min 34 s
Bit rate mode               : Constant
Bit rate                    : 128 kb/s
Channel(s)                  : 2 channels
Sampling rate               : 48.0 kHz
Compression mode            : Lossy
Stream size                 : 46.3 MiB (12%)
Alignment                   : Aligned on interleaves
Interleave, duration        : 24  ms (0.58 video frame)

Screenshots:







Please Seed For As Long As Possible
Or At Least 1:1 Ratio...Thanks
Enjoy Peeps
YouTube Video:   
Category:TV
Language:English  English
Total Size:373.24 MB
Info Hash:BDDC4A55BF7FF466F0920187359F7218F6464B33
Added By:B4ND1T69 Verified UploaderMovie Pirate
Date Added:2021-02-21 21:34:24
Torrent Status:Torrent Verified


Ratings:Not Yet Rated (Log in to rate it)


Tracker:
udp://tracker.opentrackr.org:1337/announce

This Torrent also has backup trackers
URLSeedersLeechersCompleted
udp://tracker.opentrackr.org:1337/announce35991
udp://exodus.desync.com:6969/announce24675
udp://open.demonii.si:1337/announce000
udp://tracker.pirateparty.gr:6969/announce000
udp://tracker.leechers-paradise.org:6969/announce000
udp://9.rarbg.to:2770/announce339130
udp://open.stealth.si:80/announce28779
udp://tracker.uw0.xyz:6969/announce26767
udp://tracker.tiny-vps.com:6969/announce25878


File List: 





Comments
No comments still posted